Angel Di Steffano | Szkoła złamanych serc / Heartbreak High | Modern Family S09E08 English HD 720p Download
Dhruva 2016 1080p Untouched WebHD x264 AAC Hindi Dubbed [TMB]


Dhruva 2016 1080p Untouched WebHD x264 AAC Hindi Dubbed [TMB]





General
Complete name : Dhruva 2016 1080p Untouched WebHD x264 AAC Hindi Dubbed [TMB].mp4
Format : MPEG-4
Format profile : Base Media
Codec ID : isom (isom/iso2/avc1/mp41)
File size : 4.93 GiB
Duration : 2 h 34 min
Overall bit rate mode : Variable
Overall bit rate : 4 568 kb/s
Writing application : Lavf56.30.100

Video
Format : AVC
Format/Info : Advanced Video Codec
Format profile : [email protected]
Format settings : CABAC / 1 Ref Frames
Format settings, CABAC : Yes
Format settings, RefFrames : 1 frame
Format settings, GOP : M=1, N=25
Codec ID : avc1
Codec ID/Info : Advanced Video Coding
Duration : 2 h 34 min
Bit rate mode : Constant
Bit rate : 4 500 kb/s
Width : 1 920 pixels
Height : 1 080 pixels
Display aspect ratio : 16:9
Frame rate mode : Constant
Frame rate : 25.000 FPS
Color space : YUV
Chroma subsampling : 4:2:0
Bit depth : 8 bits
Scan type : Progressive
Bits/(Pixel*Frame) : 0.087
Stream size : 4.86 GiB (99%)

Audio
Format : AAC
Format/Info : Advanced Audio Codec
Format profile : LC
Codec ID : mp4a-40-2
Duration : 2 h 34 min
Bit rate mode : Variable
Bit rate : 61.4 kb/s
Maximum bit rate : 63.8 kb/s
Channel(s) : 2 channels
Channel positions : Front: L R
Sampling rate : 48.0 kHz
Frame rate : 46.875 FPS (1024 SPF)
Compression mode : Lossy
Stream size : 67.9 MiB (1%)
Audio Language : Hindi

Dhruva 2016 1080p Untouched WebHD x264 AAC Hindi Dubbed [TMB]

Dhruva 2016 1080p Untouched WebHD x264 AAC Hindi Dubbed [TMB]

Dhruva 2016 1080p Untouched WebHD x264 AAC Hindi Dubbed [TMB]

Dhruva 2016 1080p Untouched WebHD x264 AAC Hindi Dubbed [TMB]

Dhruva 2016 1080p Untouched WebHD x264 AAC Hindi Dubbed [TMB]

Dhruva 2016 1080p Untouched WebHD x264 AAC Hindi Dubbed [TMB]

Dhruva 2016 1080p Untouched WebHD x264 AAC Hindi Dubbed [TMB]

Dhruva 2016 1080p Untouched WebHD x264 AAC Hindi Dubbed [TMB]

Dhruva 2016 1080p Untouched WebHD x264 AAC Hindi Dubbed [TMB]

Dhruva 2016 1080p Untouched WebHD x264 AAC Hindi Dubbed [TMB]

Dhruva 2016 1080p Untouched WebHD x264 AAC Hindi Dubbed [TMB]

Dhruva 2016 1080p Untouched WebHD x264 AAC Hindi Dubbed [TMB]
Buy Premium Account From My Download Links And Get Resumable Support & SUPER Fastest Speed
http://rapidpaid.com/1657e7d48b2dfec2/Dhruva_2016_1080p_Untouched_WebHD_x264_AAC_Hindi_Dubbed_[TMB].mp4


Dhruva 2016 1080p Untouched WebHD x264 AAC Hindi Dubbed [TMB]
60

Dear visitor, you went to the site as unregistered user.
We recommend you to register or enter the site under your name.
Information
Customers are in the group Guests, can not leave comments in the news.
Adding a comment
Name:*
E-Mail:
Code:
reload, if the code cannot be seen
Enter the code: