Hardcastle McCormick | Clayne Crawford | Cinderellas Sister (2010)
The.Damned.Dont.You.Wish.That.We.Were.Dead.2015.1080p.BluRay.x264-GHOULS
The.Damned.Dont.You.Wish.That.We.Were.Dead.2015.1080p.BluRay.x264-GHOULS

Directed by Wes Orshoski
Produced by Wes Orshoski
Written by Wes Orshoski
Starring
David Vanian
Captain Sensible
Rat Scabies
Brian James
Music by The Damned
Cinematography Wes Orshoski
Edited by Wes Orshoski
Production
companies
Three Count Films[1]
Release date
March 19, 2015 (SXSW Film Festival)
Running time
110 minutes[1]
Country United States
Genre Musical
Synopsis / Plot From 'Lemmy' co-director/producer Wes Orshoski comes the first ever film about the long-ignored pioneers of punk: The Damned, the first of the UK punk bands to release a single, album and the first to tour America. This authorized film includes appearances from Chrissie Hynde, Mick Jones, Lemmy and members of Pink Floyd, Black Flag, Guns N Roses, the Sex Pistols, Blondie, the Buzzcocks, and more. Shot around the world over the past three years, it tells the story of the band's complex history, as it celebrated its 35th anniversary and found its estranged former members striking out on their own anniversary tour, while still others battle cancer. The film gets up close and personal with Damned founders Rat Scabies, Dave Vanian, Captain Sensible, and Brian James as it tells the story of one of the most criminally ignored acts in music history. File under: Vampiric, Absurdist, Psychedelic, Gnarled, Authentic, Influential, Energetic, Original, Uncompromising, Defiant, Trailblazing, Snotty, Offensive, Adored and definitely not the Clash or the Sex Pistols.



Video
ID : 1
Format : AVC
Format/Info : Advanced Video Codec
Format profile : [email protected]
Format settings, CABAC : Yes
Format settings, ReFrames : 4 frames
Codec ID : V_MPEG4/ISO/AVC
Duration : 1h 50mn
Bit rate : 9 278 Kbps
Width : 1 920 pixels
Height : 1 080 pixels
Display aspect ratio : 16:9
Frame rate mode : Constant
Frame rate : 23.976 (24000/1001) fps
Color space : YUV
Chroma subsampling : 4:2:0
Bit depth : 8 bits
Scan type : Progressive
Bits/(Pixel*Frame) : 0.187
Stream size : 7.01 GiB (92%)
Writing library : x264 core 152 r2851kMod ba24899
Encoding settings : cabac=1 / ref=4 / deblock=1:-3:-3 / analyse=0x3:0x133 / me=umh / subme=8 / psy=1 / fade_compensate=0.00 / psy_rd=1.00:0.00 / mixed_ref=1 / me_range=16 / chroma_me=1 / trellis=1 / 8x8dct=1 / cqm=0 / deadzone=21,11 / fast_pskip=0 / chroma_qp_offset=-2 / threads=6 / lookahead_threads=1 / sliced_threads=0 / nr=0 / decimate=1 / interlaced=0 / bluray_compat=0 / constrained_intra=0 / bframes=3 / b_pyramid=2 / b_adapt=1 / b_bias=0 / direct=3 / weightb=1 / open_gop=0 / weightp=2 / keyint=250 / keyint_min=23 / scenecut=40 / intra_refresh=0 / rc_lookahead=50 / rc=2pass / mbtree=1 / bitrate=9278 / ratetol=1.0 / qcomp=0.60 / qpmin=0 / qpmax=69 / qpstep=4 / cplxblur=20.0 / qblur=0.5 / vbv_maxrate=62500 / vbv_bufsize=78125 / nal_hrd=none / filler=0 / ip_ratio=1.40 / aq=1:1.00
Default : Yes
Forced : No

Audio
ID : 2
Format : AC-3
Format/Info : Audio Coding 3
Mode extension : CM (complete main)
Format settings, Endianness : Big
Codec ID : A_AC3
Duration : 1h 50mn
Bit rate mode : Constant
Bit rate : 640 Kbps
Channel(s) : 2 channels
Channel positions : Front: L R
Sampling rate : 48.0 KHz
Frame rate : 31.250 fps (1536 spf)
Compression mode : Lossy
Stream size : 506 MiB (6%)
Language : English
Default : Yes
Forced : No


The.Damned.Dont.You.Wish.That.We.Were.Dead.2015.1080p.BluRay.x264-GHOULS
The.Damned.Dont.You.Wish.That.We.Were.Dead.2015.1080p.BluRay.x264-GHOULS

The.Damned.Dont.You.Wish.That.We.Were.Dead.2015.1080p.BluRay.x264-GHOULS
Buy Premium Account To Get High Speed Download
http://katfile.com/p14ne6ozylwa/tdy581rfd.part1.rar.html
http://katfile.com/lersxky3ysbt/tdy581rfd.part2.rar.html
http://katfile.com/hjptm1wwl51f/tdy581rfd.part3.rar.html
http://katfile.com/qamtcey6trir/tdy581rfd.part4.rar.html
http://katfile.com/ko6q1elragyt/tdy581rfd.part5.rar.html
http://katfile.com/nql7fyixajyy/tdy581rfd.part6.rar.html
http://katfile.com/zbld2p2kxz31/tdy581rfd.part7.rar.html
http://katfile.com/45n33zzxwsi6/tdy581rfd.part8.rar.html
http://nitroflare.com/view/68147D086012A53/tdy581rfd.part1.rar
http://nitroflare.com/view/04E93C154DEDC1F/tdy581rfd.part2.rar
http://nitroflare.com/view/49EA57633D5220B/tdy581rfd.part3.rar
http://nitroflare.com/view/CB17DFF66CBDE77/tdy581rfd.part4.rar
http://nitroflare.com/view/163FA6567A70413/tdy581rfd.part5.rar
http://nitroflare.com/view/382A2E518C38DDA/tdy581rfd.part6.rar
http://nitroflare.com/view/7625CA18C4C85D8/tdy581rfd.part7.rar
http://nitroflare.com/view/997B3017D3490B4/tdy581rfd.part8.rar
http://rapidgator.net/file/cbd0f3bee66cf894ff8f987cff0abd70/tdy581rfd.part1.rar.html
http://rapidgator.net/file/8020172d08284ff202c86230d4c02a01/tdy581rfd.part2.rar.html
http://rapidgator.net/file/2945ddad8581ae88700cb44e322af7b4/tdy581rfd.part3.rar.html
http://rapidgator.net/file/5ba5e9b254ae0ad9ce326fe1e2fbd9cf/tdy581rfd.part4.rar.html
http://rapidgator.net/file/1c443835fc0c122be6847dfe28b59e88/tdy581rfd.part5.rar.html
http://rapidgator.net/file/ccf0912a6a81adbb1a15f1331a06d1d0/tdy581rfd.part6.rar.html
http://rapidgator.net/file/6645fb2d358769650477bcc4324d8dc4/tdy581rfd.part7.rar.html
http://rapidgator.net/file/8ab95ada52bcc49c7bd7f7779817197f/tdy581rfd.part8.rar.html
1400

Dear visitor, you went to the site as unregistered user.
We recommend you to register or enter the site under your name.
Information
Customers are in the group Guests, can not leave comments in the news.
Adding a comment
Name:*
E-Mail:
Code:
reload, if the code cannot be seen
Enter the code: